zoozle
Kategorie:
Kategorie:

8 Out Of 10 Cats Does Countdown S10E06
Torrent Download

  • rerip 720p hdtv x264 deadpool
  • s10e05 1080p plutonium
  • s10e02
  • s20e04 tla
  • s09e02

DOWNLOAD
8.Out.Of.10.Cats.Does.Countdown.S10E06.RERIP.720p.HDTV.x264-DEADPOOL möglicherweise mit 100 Mbit/s



eschreibung 8 Out Of 10 Cats Does Countdown S05E01 720p HDTV x264-TLA:
Beschreibung:
8 out of 10 Cats Does Countdown
SEASON: 5
EPISODE 01
AIR DATE: 2014-06-06
EPISODE TITLE: Roisin Conaty, Jonathan Ross, David O'Doherty
8.out.of.10.cats.does.countdown.s05e01.720p.hdtv.x264-tla.mkv
SIZE: 1049455551 bytes (1000.84 MiB),
DURATION: 00:46:27,
AVG-BITRATE: 3012 kb/s
AUDIO: aac, 48000 Hz, stereo (eng)
VIDEO: h264, yuv420p, 1280x720, 25.00 fps(r)
SCREENS:
DESCRIPTION :
https://www.facebook.com/pag...nload-Links/1446110842281782
 
songs.to - Musik mp3 Streams Online
8 Out Of 10 Cats Does Countdown S05E01...
 


2.Beschreibung 8 Out Of 10 Cats Does Countdown S05E01 HDTV x264-TLA[ettv]:
Beschreibung:
[Name]: 8.Out.Of.10.Cats.Does.Countdown.S05E01.HDTV.x264-TLA
[Duration]: 46mn 27s
[Media]: video/H264
[Format]: x264
[Resolution]: 720x404 px
[AspectRatio]: 16:9
[FrameRate]: 25.000 fps
#ETTV -> To avoid fakes, ALWAYS check that the torrent was added by ETTV.
http://extratorrent.com/
Help us by donating with Bitcoin: 1XeH1kKXWYbzZcFHokGiZ4d3MWW5WyXzU
 
songs.to - Musik mp3 Streams Online
8 Out Of 10 Cats Does Countdown S05E01...
 


3.Beschreibung 8 Out Of 10 Cats Does Countdown S07E08 HDTV x264-TLA.mp4:
Beschreibung:
General...
Format : MPEG-4
Format profile : Base Media
Codec ID : isom
File size : 312 MiB
Duration : 46mn 44s
Overall bit rate mode : Variable
Overall bit rate : 933 Kbps
Video....
ID : 1
Format : AVC
Format/Info : Advanced Video Codec
Format profile : [email protected]
/* */
Format settings, CABAC : Yes
Format settings, ReFrames : 5 frames
Codec ID : avc1
Codec ID/Info : Advanced Video Coding
Duration : 46mn 44s
Bit rate : 805 Kbps
Maximum bit rate : 2 898 Kbps
Width : 720 pixels
Height : 404 pixels
Display aspect ratio : 16:9
Frame rate mode : Constant
Frame rate : 25.000 fps
Color space : YUV
Chroma subsampling : 4:2:0
Bit depth : 8 bits
Scan type : Progressive
Bits/(Pixel*Frame) : 0.111
Stream size : 269 MiB (86%)
Audio...
ID : 2
Format : AAC
Format/Info : Advanced Audio Codec
Format profile : LC
Codec ID : 40
Duration : 46mn 44s
Bit rate mode : Variable
Bit rate : 124 Kbps
Maximum bit rate : 130 Kbps
Channel(s) : 2 channels
Channel positions : Front: L R
Sampling rate : 48.0 KHz
Compression mode : Lossy
Stream size : 41.4 MiB (13%)
Title : English
Language : English
Jimmy Carr, Sean Lock, Roisin Conaty, Sarah Millican, Rhod Gilbert and David O'Doherty.
Trusted Uploader @ ExtraTorrent
https://extratorrent.unblocked.pw/profile/stateofmind80/
http://extratorrent.cc/profile/stateofmind80/
 
songs.to - Musik mp3 Streams Online
8 Out Of 10 Cats Does Countdown S07E08...
 


4.Beschreibung 8 Out Of 10 Cats Does Countdown S07E11 hdtv x264-tla:
Beschreibung:
[General]
Format : MPEG-4
Format profile : Base Media
Codec ID : isom
File size : 292 MiB
Duration : 46mn 50s
Overall bit rate mode : Variable
Overall bit rate : 873 Kbps
[Video]
ID : 1
Format : AVC
Format/Info : Advanced Video Codec
Format profile : [email protected]
/* */
Format settings, CABAC : Yes
Format settings, ReFrames : 5 frames
Codec ID : avc1
Codec ID/Info : Advanced Video Coding
Duration : 46mn 50s
Bit rate : 745 Kbps
Maximum bit rate : 2 882 Kbps
Width : 720 pixels
Height : 404 pixels
Display aspect ratio : 16:9
Frame rate mode : Constant
Frame rate : 25.000 fps
Color space : YUV
Chroma subsampling : 4:2:0
Bit depth : 8 bits
Scan type : Progressive
Bits/(Pixel*Frame) : 0.102
Stream size : 249 MiB (85%)
[Audio]
ID : 2
Format : AAC
Format/Info : Advanced Audio Codec
Format profile : LC
Codec ID : 40
Duration : 46mn 50s
Bit rate mode : Variable
Bit rate : 124 Kbps
Maximum bit rate : 130 Kbps
Channel(s) : 2 channels
Channel positions : Front: L R
Sampling rate : 48.0 KHz
Compression mode : Lossy
Stream size : 41.5 MiB (14%)
Title : English
Language : English
Sean Lock and Mel Giedroyc vs Lee Mack and David O'Doherty, with Adam Buxton.
Trusted Uploader @ ExtraTorrent
https://extratorrent.unblocked.pw/profile/stateofmind80/
http://extratorrent.cc/profile/stateofmind80/
All my Torrent are downloaded from www.torrenting.com
 
songs.to - Musik mp3 Streams Online
8 Out Of 10 Cats Does Countdown S07E11...
 


5.Beschreibung 8 Out Of 10 Cats Does Countdown S06E16 HDTV x264-TLA:
Description:
Come Join us and have fun @ https://www.torrenting.com
8.Out.Of.10.Cats.Does.Countdown.S06E16.HDTV.x264-TLA
2015-08-30
 
songs.to - mp3s Online Stream
8 Out Of 10 Cats Does Countdown S06E16...
 


6.Beschreibung 8 Out Of 10 Cats Does Countdown S07E09 720p HDTV x264-BARGE[PRiME]:
Beschreibung:
8.Out.Of.10.Cats.Does.Countdown.S07E09.720p.HDTV.x264-BARGE[PRiME]
8.out.of.10.cats.does.countdown.s07e09.720p.hdtv.x264-barge[PRiME].mkv
File type: mkv
Duration: 00:47:20
Video size: 1280x720
Frame rate: 25
Bitrate: 2481 kb/s
Video codec: h264
Audio codec: aac
Audio type: stereo
Click Image To View Full Size
 
songs.to - Musik mp3 Streams Online
8 Out Of 10 Cats Does Countdown S07E09...
 

Direkte externe Links zum Torrent Download Quelle Datum
8.Out.Of.10.Cats.Does.Countdown.S10E06.RERIP.720p.HDTV.x264-DEADPOOL speedtorrent.to 19.02.2017
8.Out.Of.10.Cats.Does.Countdown.S10E06.720p.HDTV.x264-DEADPOOL speedtorrent.to 18.02.2017
8.Out.Of.10.Cats.Does.Countdown.S10E06.HDTV.x264-DEADPOOL speedtorrent.to 18.02.2017
8.Out.Of.10.Cats.Does.Countdown.S10E05.1080p.HDTV.x264-PLUTONiUM speedtorrent.to 11.02.2017
8.Out.Of.10.Cats.Does.Countdown.S10E05.720p.HDTV.x264-PLUTONiUM speedtorrent.to 11.02.2017
8.Out.Of.10.Cats.Does.Countdown.S10E02.HDTV.x264-PLUTONiUM speedtorrent.to 21.01.2017
8.Out.Of.10.Cats.S20E04.720p.HDTV.x264-TLA speedtorrent.to 30.11.2016
8.Out.Of.10.Cats.S20E04.HDTV.x264-TLA speedtorrent.to 30.11.2016
8.Out.Of.10.Cats.Does.Countdown.S09E02.720p.HDTV.x264-TLA speedtorrent.to 09.10.2016
8.Out.Of.10.Cats.Does.Countdown.S09E02.HDTV.x264-TLA speedtorrent.to 09.10.2016

Ähnliche Downloads in anderen Kategorien:


Usenet:



RapidShare:



eMule:



Streams:

Gastro:



Suche 8.Out.Of.10.Cats.Does.Countdown.S10E06.RERIP.720p.HDTV.x264-DEADPOOL in Usenet, RapidShare, eMule, Streams, Gastro


Zuletzt angezeigte Downloads:
Citavi Pro 2 5 2 0
???????? -?????- 12?(?) // Sh?wa Genroku Rakugo Shinj?: Sukeroku Futatabi-hen 12 (END... - Dailymotion Video
Rote-Bete-Nudeln mit Knoblauchpaste


Letzte Suchanfragen:
sechs schwedinnen auf ibiza 1981
die welt im krieg der
spiele seite 2 von 679